<?xml version="1.0" standalone="no"?>
<!DOCTYPE svg PUBLIC "-//W3C//DTD SVG 1.1//EN" "http://www.w3.org/Graphics/SVG/1.1/DTD/svg11.dtd" >
<svg xmlns="http://www.w3.org/2000/svg">
<metadata>Generated by IcoMoon</metadata>
<defs>
<font id="christiani" horiz-adv-x="1024">
<font-face units-per-em="1024" ascent="960" descent="-64" />
<missing-glyph horiz-adv-x="1024" />
<glyph unicode="&#x20;" horiz-adv-x="512" d="" />
<glyph unicode="&#xe900;" glyph-name="close" d="M507.029 514.197l445.803 445.803 61.209-61.209-445.803-445.82 445.803-445.803-61.209-61.209-445.803 445.803-445.82-445.803-61.209 61.209 445.82 445.803-445.82 445.82 61.209 61.209 445.82-445.803z" />
<glyph unicode="&#xe901;" glyph-name="shop-delivery" horiz-adv-x="1247" d="M1181.356 255.795h49.862c0 0 0-59.063 0-59.063 0-29.948-24.515-54.463-54.463-54.463 0 0-65.219 0-65.198 0-12.312-99.856-97.468-177.212-200.609-177.212-103.164 0-188.319 77.356-200.609 177.212 0 0-189.458 0-189.436 0-12.312-99.856-97.49-177.212-200.631-177.212-103.164 0-188.319 77.356-200.609 177.212h-6.134c-62.678 0-113.526 50.848-113.526 113.526v590.677c0 62.678 50.848 113.526 113.526 113.526h590.677c62.678 0 113.526-50.848 113.526-113.526 0 0 0-63.664 0-63.664s56.478 0 56.478 0c30.036 0 58.91-12.049 80.204-33.322 0 0 184.398-184.398 184.398-184.398 21.294-21.316 33.322-50.191 33.322-80.226 0 0 0-174.605 0-174.605h4.623c29.948 0 54.463-24.493 54.463-54.463h-49.862c0 2.541-2.081 4.601-4.601 4.601h-29.554c-13.78 0-24.931 11.151-24.931 24.931 0 0 0 199.536 0 199.536 0 16.847-6.77 33.015-18.731 44.955 0 0-184.398 184.398-184.398 184.398-11.918 11.94-28.086 18.731-44.933 18.731h-81.409c-13.78 0-24.931 11.151-24.931 24.931v88.595c0 35.162-28.502 63.664-63.664 63.664h-590.677c-35.162 0-63.664-28.502-63.664-63.664 0 0 0-590.677 0-590.677 0-35.162 28.502-63.664 63.664-63.664h29.532c13.78 0 24.931-11.151 24.931-24.931 0-84.082 68.199-152.281 152.281-152.281 84.060 0 152.281 68.199 152.281 152.281 0 13.78 11.151 24.931 24.931 24.931h236.253c13.78 0 24.931-11.151 24.931-24.931 0-84.082 68.199-152.281 152.281-152.281 84.060 0 152.259 68.199 152.259 152.281 0 13.78 11.151 24.931 24.931 24.931 0 0 88.617 0 88.617 0 2.519 0 4.601 2.081 4.601 4.601v59.063zM1024.321 161.351c-3.045-59.962-52.666-107.677-113.373-107.677-62.678 0-113.548 50.848-113.548 113.526s50.87 113.526 113.548 113.526c62.656 0 113.526-50.848 113.526-113.526l-0.044-2.936-0.11-2.914zM433.644 161.351c-3.045-59.962-52.644-107.677-113.373-107.677-62.678 0-113.526 50.848-113.526 113.526s50.848 113.526 113.526 113.526c62.678 0 113.526-50.848 113.526-113.526l-0.044-2.936-0.11-2.914zM1083.538 484.863c0 6.616-2.629 12.947-7.295 17.636l-184.398 184.398c-4.688 4.666-11.020 7.295-17.636 7.295h-81.409c-13.78 0-24.931-11.151-24.931-24.931v-206.722c0-13.78 11.151-24.931 24.931-24.931h265.807c13.78 0 24.931 11.151 24.931 24.931v22.324zM1020.728 487.47h-202.997c0 0 0 156.86 0 156.86s46.16 0 46.16 0l156.838-156.86zM974.525 170.487c-1.709 33.628-29.532 60.378-63.576 60.378-35.162 0-63.686-28.502-63.686-63.664s28.524-63.664 63.686-63.664c35.14 0 63.664 28.502 63.664 63.664l-0.022 1.643-0.066 1.643zM383.847 170.487c-1.709 33.628-29.532 60.378-63.576 60.378-35.162 0-63.664-28.502-63.664-63.664s28.502-63.664 63.664-63.664c35.162 0 63.664 28.502 63.664 63.664l-0.022 1.643-0.066 1.643z" />
<glyph unicode="&#xe902;" glyph-name="Add-User" d="M517.344 218.656c-126.496 0-229.6 137.376-239.232 258.912-28.448 8.032-54.112 31.488-54.112 61.088v85.344c0 26.656 25.824 45.92 42.656 55.648v72.352c0 80.896 64.64 146.944 144.928 149.248 17.152 6.88 84.736 32.096 153.728 32.096 110.080 0 170.656-64.416 170.656-181.344v-65.888c42.656-8.32 42.656-42.592 42.656-62.112v-85.344c0-29.696-13.472-51.84-35.232-60.256-8.192-126.080-102.176-259.744-226.080-259.744zM565.344 890.656c-69.216 0-140.256-29.952-140.928-30.304-2.656-1.12-5.504-1.696-8.416-1.696-58.784 0-106.656-47.84-106.656-106.656v-85.344c0-8.352-4.96-16-12.576-19.456-15.2-6.88-29.28-18.656-30.112-23.392v-85.152c0-9.376 17.92-21.344 32-21.344 11.776 0 21.344-9.568 21.344-21.344 0-105.632 91.040-234.656 197.344-234.656 103.648 0 184.032 126.176 184.032 234.656 0 11.776 9.568 21.344 21.344 21.344 8.832 0 13.344 7.168 13.344 21.344v85.344c0 21.344 0 21.344-21.344 21.344-11.744 0-21.344 9.568-21.344 21.344v85.344c0 93.312-41.824 138.656-128 138.656zM842.656-37.344c-11.744 0-21.344 9.568-21.344 21.344v213.344c0 11.776 9.6 21.344 21.344 21.344s21.344-9.568 21.344-21.344v-213.344c0-11.776-9.6-21.344-21.344-21.344zM949.344 69.344h-213.344c-11.744 0-21.344 9.568-21.344 21.344s9.6 21.344 21.344 21.344h213.344c11.744 0 21.344-9.568 21.344-21.344s-9.6-21.344-21.344-21.344zM74.656-37.344c-11.776 0-21.344 9.568-21.344 21.344 0 123.552 98.688 213.344 234.656 213.344h52.608l56.8 84.736c6.56 9.76 19.808 12.416 29.6 5.856 9.76-6.528 12.416-19.808 5.856-29.568l-63.104-94.208c-3.968-5.92-10.624-9.472-17.76-9.472h-64c-113.024 0-192-70.24-192-170.656 0-11.776-9.568-21.344-21.344-21.344z" />
<glyph unicode="&#xe903;" glyph-name="Administrator" d="M506.656 240c-126.496 0-229.6 137.376-239.232 258.912-28.448 8.032-54.112 31.584-54.112 61.088v85.344c0 26.656 25.824 45.92 42.656 55.648v72.352c0 80.896 64.64 146.944 144.928 149.248 17.152 6.88 84.736 32.096 153.728 32.096 110.080 0 170.656-64.416 170.656-181.344v-65.888c42.656-8.32 42.656-42.592 42.656-62.112v-85.344c0-29.696-13.472-51.84-35.232-60.256-8.192-126.080-102.176-259.744-226.080-259.744zM554.656 912c-69.216 0-140.256-29.952-140.928-30.304-2.656-1.12-5.504-1.696-8.416-1.696-58.784 0-106.656-47.84-106.656-106.656v-85.344c0-8.352-4.96-16-12.576-19.456-15.2-6.88-29.28-18.656-30.112-23.392l0.032-85.152c0-9.376 17.92-21.344 32-21.344 11.776 0 21.344-9.568 21.344-21.344 0-105.632 91.040-234.656 197.344-234.656 103.68 0 184.032 126.176 184.032 234.656 0 11.776 9.6 21.344 21.344 21.344 8.928 0 13.344 7.168 13.344 21.344v85.344c0 21.344 0 21.344-21.344 21.344-11.776 0-21.344 9.568-21.344 21.344v85.344c-0.032 93.312-41.856 138.656-128.032 138.656zM64-58.656c-11.776 0-21.344 9.568-21.344 21.344v42.656c0 123.552 98.688 213.344 234.656 213.344h52.608l56.8 84.736c6.624 9.76 19.808 12.416 29.6 5.856 9.76-6.528 12.416-19.808 5.856-29.568l-63.104-94.208c-3.968-5.92-10.624-9.472-17.76-9.472h-64c-113.024 0-192-70.176-192-170.656v-42.656c0-11.776-9.568-21.344-21.344-21.344zM960-58.656c-11.744 0-21.344 9.568-21.344 21.344v42.656c0 100.48-77.472 170.656-188.512 170.656h-64c-7.040 0-13.568 3.456-17.568 9.248l-69.248 100.704c-6.656 9.728-4.224 23.008 5.504 29.6 9.76 6.624 23.040 4.224 29.664-5.536l62.944-91.488h52.736c136.064 0 231.168-87.776 231.168-213.344v-42.656c0-11.648-9.6-21.216-21.344-21.216zM512 69.344c-3.936 0-7.84 1.056-11.296 3.232l-170.656 106.656c-9.984 6.24-13.024 19.424-6.784 29.344 6.24 10.016 19.36 13.184 29.408 6.784l159.456-99.68 162.912 99.808c10.080 6.24 23.2 2.976 29.344-7.072 6.176-9.952 2.976-23.168-7.040-29.344l-174.176-106.656c-3.424-2.048-7.296-3.072-11.136-3.072z" />
<glyph unicode="&#xe904;" glyph-name="Close" d="M512 917.344c258.72 0 469.344-210.56 469.344-469.344 0-258.72-210.592-469.344-469.344-469.344-258.784 0-469.344 210.592-469.344 469.344 0 258.784 210.56 469.344 469.344 469.344zM512 960c-282.752 0-512-229.248-512-512s229.248-512 512-512 512 229.248 512 512-229.248 512-512 512v0zM320 234.656c-5.472 0-10.912 2.080-15.104 6.24-8.32 8.288-8.32 21.856 0 30.176l384 384c8.288 8.32 21.856 8.32 30.176 0 8.288-8.32 8.288-21.856 0-30.176l-384-384c-4.128-4.128-9.6-6.24-15.072-6.24zM704 234.656c-5.472 0-10.912 2.080-15.104 6.24l-384 384c-8.32 8.32-8.32 21.856 0 30.176s21.856 8.32 30.176 0l384-384c8.288-8.32 8.288-21.888 0-30.176-4.128-4.128-9.6-6.24-15.072-6.24z" />
<glyph unicode="&#xe905;" glyph-name="Engineering" d="M917.344-64c-11.744 0-21.344 9.568-21.344 21.344 0 90.848-64.256 192-156.416 192h-99.584c-11.744 0-21.344 9.568-21.344 21.344s9.6 21.344 21.344 21.344h99.584c119.072 0 199.072-121.344 199.072-234.656 0-11.776-9.6-21.344-21.344-21.344zM106.656-64c-11.744 0-21.344 9.568-21.344 21.344 0 116.256 116.48 234.656 230.816 234.656h67.84c11.744 0 21.344-9.568 21.344-21.344s-9.6-21.344-21.344-21.344h-67.84c-91.488 0-188.16-98.688-188.16-192 0-11.776-9.6-21.344-21.344-21.344zM810.656 618.656h-597.344c-11.744 0-21.344 9.568-21.344 21.344s9.6 21.344 21.344 21.344h597.344c11.744 0 21.344-9.568 21.344-21.344s-9.6-21.344-21.344-21.344zM746.656 640c-11.744 0-21.344 9.568-21.344 21.344v41.696c0 120.16-93.664 214.304-213.344 214.304-117.632 0-213.344-98.4-213.344-219.264v-36.736c0-11.776-9.6-21.344-21.344-21.344s-21.344 9.568-21.344 21.344v36.736c0 144.416 114.816 261.92 256 261.92s256-115.296 256-256.992v-41.696c0-11.776-9.6-21.344-21.344-21.344zM512 106.656c-117.632 0-213.344 95.712-213.344 213.344v46.336c-24.832 8.8-42.656 32.512-42.656 60.32v85.344c0 27.808 17.824 51.552 42.656 60.32v46.336c0 11.776 9.6 21.344 21.344 21.344s21.344-9.568 21.344-21.344v-64c0-11.776-9.6-21.344-21.344-21.344s-21.344-9.6-21.344-21.344v-85.344c0-11.744 9.6-21.344 21.344-21.344s21.344-9.568 21.344-21.344v-64c0-94.112 76.544-170.656 170.656-170.656s170.656 76.544 170.656 170.656v64c0 11.776 9.6 21.344 21.344 21.344s21.344 9.6 21.344 21.344v85.344c0 11.744-9.6 21.344-21.344 21.344s-21.344 9.568-21.344 21.344v64c0 11.776 9.6 21.344 21.344 21.344s21.344-9.568 21.344-21.344v-46.336c24.832-8.8 42.656-32.512 42.656-60.32v-85.344c0-27.808-17.824-51.552-42.656-60.32v-46.336c0-117.632-95.712-213.344-213.344-213.344zM448 640c-11.744 0-21.344 9.568-21.344 21.344v170.656c0 23.552-19.104 42.656-42.656 42.656-11.744 0-21.344 9.568-21.344 21.344s9.6 21.344 21.344 21.344c47.104 0 85.344-38.24 85.344-85.344v-170.656c0-11.776-9.6-21.344-21.344-21.344zM576 640c-11.744 0-21.344 9.568-21.344 21.344v170.656c0 47.104 38.24 85.344 85.344 85.344 11.744 0 21.344-9.568 21.344-21.344s-9.6-21.344-21.344-21.344c-23.552 0-42.656-19.104-42.656-42.656v-170.656c0-11.776-9.6-21.344-21.344-21.344zM512-46.24c-5.856 0-11.552 2.336-15.776 7.008l-177.76 195.584c-7.968 8.704-7.296 22.24 1.44 30.112s22.24 7.328 30.112-1.44l177.76-195.584c7.968-8.704 7.296-22.24-1.44-30.112-4.096-3.712-9.216-5.536-14.336-5.536zM512-46.24c-5.12 0-10.24 1.824-14.336 5.536-8.736 8.032-9.44 21.408-1.44 30.112l177.76 195.584c7.968 8.8 21.408 9.344 30.112 1.44 8.736-7.968 9.44-21.408 1.44-30.112l-177.76-195.584c-4.224-4.64-9.952-7.008-15.776-7.008z" />
<glyph unicode="&#xe906;" glyph-name="Hotel" d="M874.656-64h-725.344c-11.776 0-21.344 9.6-21.344 21.344v810.656c0 11.776 9.568 21.344 21.344 21.344h725.344c11.744 0 21.344-9.568 21.344-21.344v-810.656c0-11.744-9.6-21.344-21.344-21.344zM170.656-21.344h682.656v768h-682.656v-768zM746.656 746.656h-469.344c-11.776 0-21.344 9.568-21.344 21.344v170.656c0 11.776 9.568 21.344 21.344 21.344h469.344c11.744 0 21.344-9.568 21.344-21.344v-170.656c0-11.776-9.6-21.344-21.344-21.344zM298.656 789.344h426.656v128h-426.656v-128zM341.344 661.344h-85.344c-11.776 0-21.344 9.568-21.344 21.344s9.568 21.344 21.344 21.344h85.344c11.776 0 21.344-9.568 21.344-21.344s-9.568-21.344-21.344-21.344zM554.656 661.344h-85.344c-11.776 0-21.344 9.568-21.344 21.344s9.568 21.344 21.344 21.344h85.344c11.744 0 21.344-9.568 21.344-21.344s-9.6-21.344-21.344-21.344zM469.344 832h-85.344c-11.776 0-21.344 9.568-21.344 21.344s9.568 21.344 21.344 21.344h85.344c11.776 0 21.344-9.568 21.344-21.344s-9.568-21.344-21.344-21.344zM640 832h-85.344c-11.744 0-21.344 9.568-21.344 21.344s9.6 21.344 21.344 21.344h85.344c11.744 0 21.344-9.568 21.344-21.344s-9.6-21.344-21.344-21.344zM768 661.344h-85.344c-11.744 0-21.344 9.568-21.344 21.344s9.6 21.344 21.344 21.344h85.344c11.744 0 21.344-9.568 21.344-21.344s-9.6-21.344-21.344-21.344zM341.344 576h-85.344c-11.776 0-21.344 9.568-21.344 21.344s9.568 21.344 21.344 21.344h85.344c11.776 0 21.344-9.568 21.344-21.344s-9.568-21.344-21.344-21.344zM554.656 576h-85.344c-11.776 0-21.344 9.568-21.344 21.344s9.568 21.344 21.344 21.344h85.344c11.744 0 21.344-9.568 21.344-21.344s-9.6-21.344-21.344-21.344zM768 576h-85.344c-11.744 0-21.344 9.568-21.344 21.344s9.6 21.344 21.344 21.344h85.344c11.744 0 21.344-9.568 21.344-21.344s-9.6-21.344-21.344-21.344zM341.344 490.656h-85.344c-11.776 0-21.344 9.568-21.344 21.344s9.568 21.344 21.344 21.344h85.344c11.776 0 21.344-9.568 21.344-21.344s-9.568-21.344-21.344-21.344zM554.656 490.656h-85.344c-11.776 0-21.344 9.568-21.344 21.344s9.568 21.344 21.344 21.344h85.344c11.744 0 21.344-9.568 21.344-21.344s-9.6-21.344-21.344-21.344zM768 490.656h-85.344c-11.744 0-21.344 9.568-21.344 21.344s9.6 21.344 21.344 21.344h85.344c11.744 0 21.344-9.568 21.344-21.344s-9.6-21.344-21.344-21.344zM341.344 405.344h-85.344c-11.776 0-21.344 9.6-21.344 21.344 0 11.776 9.568 21.344 21.344 21.344h85.344c11.776 0 21.344-9.568 21.344-21.344 0-11.744-9.568-21.344-21.344-21.344zM554.656 405.344h-85.344c-11.776 0-21.344 9.6-21.344 21.344 0 11.776 9.568 21.344 21.344 21.344h85.344c11.744 0 21.344-9.568 21.344-21.344 0-11.744-9.6-21.344-21.344-21.344zM768 405.344h-85.344c-11.744 0-21.344 9.6-21.344 21.344 0 11.776 9.6 21.344 21.344 21.344h85.344c11.744 0 21.344-9.568 21.344-21.344 0-11.744-9.6-21.344-21.344-21.344zM341.344 320h-85.344c-11.776 0-21.344 9.6-21.344 21.344s9.568 21.344 21.344 21.344h85.344c11.776 0 21.344-9.6 21.344-21.344s-9.568-21.344-21.344-21.344zM554.656 320h-85.344c-11.776 0-21.344 9.6-21.344 21.344s9.568 21.344 21.344 21.344h85.344c11.744 0 21.344-9.6 21.344-21.344s-9.6-21.344-21.344-21.344zM768 320h-85.344c-11.744 0-21.344 9.6-21.344 21.344s9.6 21.344 21.344 21.344h85.344c11.744 0 21.344-9.6 21.344-21.344s-9.6-21.344-21.344-21.344zM341.344 234.656h-85.344c-11.776 0-21.344 9.6-21.344 21.344s9.568 21.344 21.344 21.344h85.344c11.776 0 21.344-9.6 21.344-21.344s-9.568-21.344-21.344-21.344zM554.656 234.656h-85.344c-11.776 0-21.344 9.6-21.344 21.344s9.568 21.344 21.344 21.344h85.344c11.744 0 21.344-9.6 21.344-21.344s-9.6-21.344-21.344-21.344zM768 234.656h-85.344c-11.744 0-21.344 9.6-21.344 21.344s9.6 21.344 21.344 21.344h85.344c11.744 0 21.344-9.6 21.344-21.344s-9.6-21.344-21.344-21.344zM341.344 149.344h-85.344c-11.776 0-21.344 9.6-21.344 21.344s9.568 21.344 21.344 21.344h85.344c11.776 0 21.344-9.6 21.344-21.344s-9.568-21.344-21.344-21.344zM554.656 149.344h-85.344c-11.776 0-21.344 9.6-21.344 21.344s9.568 21.344 21.344 21.344h85.344c11.744 0 21.344-9.6 21.344-21.344s-9.6-21.344-21.344-21.344zM768 149.344h-85.344c-11.744 0-21.344 9.6-21.344 21.344s9.6 21.344 21.344 21.344h85.344c11.744 0 21.344-9.6 21.344-21.344s-9.6-21.344-21.344-21.344zM576-64h-128c-11.776 0-21.344 9.6-21.344 21.344v128c0 11.744 9.568 21.344 21.344 21.344h128c11.744 0 21.344-9.6 21.344-21.344v-128c0-11.744-9.6-21.344-21.344-21.344zM469.344-21.344h85.344v85.344h-85.344v-85.344z" />
<glyph unicode="&#xe907;" glyph-name="Information" d="M576.224 191.104h-128c-11.776 0-21.344 9.6-21.344 21.344v298.656c0 11.744 9.568 21.344 21.344 21.344h128c11.776 0 21.344-9.6 21.344-21.344v-298.656c0-11.776-9.568-21.344-21.344-21.344zM469.536 233.76h85.344v256h-85.344v-256zM512.224 573.664c-47.2 0-85.6 38.304-85.6 85.6s38.4 85.6 85.6 85.6c47.2 0 85.6-38.304 85.6-85.6s-38.4-85.6-85.6-85.6zM512.224 702.176c-23.68 0-42.912-19.232-42.912-42.912s19.232-42.912 42.912-42.912c23.712 0 42.912 19.232 42.912 42.912s-19.2 42.912-42.912 42.912zM512-64c-282.336 0-512 229.664-512 512s229.664 512 512 512 512-229.664 512-512-229.664-512-512-512zM512 917.344c-258.784 0-469.344-210.656-469.344-469.344 0-258.784 210.56-469.344 469.344-469.344 258.72 0 469.344 210.56 469.344 469.344 0 258.72-210.528 469.344-469.344 469.344z" />
<glyph unicode="&#xe908;" glyph-name="Magnifi-Glass22" d="M398.24 195.36c-97.696 0-189.472 38.24-258.592 107.552-142.56 143.104-142.56 375.904 0 518.784 69.12 69.408 160.896 107.552 258.592 107.552 97.664 0 189.472-38.24 258.656-107.552 142.496-143.008 142.56-375.776 0-518.784-69.152-69.344-160.992-107.552-258.656-107.552zM398.24 886.624c-86.24 0-167.328-33.76-228.352-95.008-126.048-126.464-125.984-332.16 0-458.656 61.024-61.28 142.112-94.944 228.384-94.944s167.328 33.664 228.384 94.944c125.984 126.496 125.984 332.192 0 458.656-61.088 61.28-142.208 95.008-228.448 95.008zM919.584-33.28c-18.208 0-35.328 7.136-48.256 20l-294.944 296.096 99.68 100.064 295.264-296.064c26.624-26.656 26.624-70.112-0.032-96.768l-3.424-3.328c-12.896-12.928-30.048-20-48.256-20zM636.64 282.848l264.96-265.952c9.696-9.632 26.464-9.696 36.192 0l3.424 3.424c9.952 9.952 9.952 26.24 0 36.384l-265.056 265.76-39.52-39.648z" />
<glyph unicode="&#xe90a;" glyph-name="Student-Male" d="M21.792-30.208c-11.776 0-21.344 9.568-21.344 21.344 0 123.552 98.688 213.344 234.656 213.344h52.576l56.8 84.736c6.56 9.76 19.808 12.448 29.6 5.856 9.76-6.528 12.416-19.808 5.856-29.568l-63.104-94.208c-3.968-5.92-10.624-9.472-17.76-9.472h-64c-113.024 0-192-70.24-192-170.656 0.032-11.776-9.568-21.344-21.28-21.344zM1002.208-30.208c-11.744 0-21.344 9.568-21.344 21.344 0 100.48-78.976 170.656-192 170.656h-64c-7.136 0-13.728 3.552-17.76 9.472l-63.104 94.208c-6.528 9.76-3.936 23.040 5.856 29.568 9.76 6.624 23.040 3.968 29.6-5.856l56.8-84.736h52.576c136.032 0 234.656-89.728 234.656-213.344 0.032-11.776-9.44-21.344-21.28-21.344zM512.48 12.416c-4.32 0-8.576 1.28-12.256 3.872l-213.344 149.376c-9.728 6.752-12 20.064-5.248 29.696s20.128 12 29.696 5.216l201.088-140.8 200.16 140.8c9.728 6.688 22.912 4.448 29.728-5.216 6.784-9.728 4.448-22.912-5.216-29.696l-212.448-149.376c-3.616-2.592-7.936-3.872-12.192-3.872zM512.48 140.448c-120.352 0-185.952 127.232-191.616 258.688-30.816 7.648-64.384 30.176-64.384 61.344v85.344c0 26.656 25.76 45.92 42.656 55.648v157.664c0 11.776 9.568 21.344 21.344 21.344 11.744 0 21.344-9.568 21.344-21.344v-170.656c0-8.352-4.96-16-12.576-19.456-15.232-6.88-29.312-18.656-30.112-23.392v-85.152c0.896-6.816 25.12-21.344 42.656-21.344 11.744 0 21.344-9.568 21.344-21.344 0-94.336 39.776-234.656 149.344-234.656 109.536 0 149.344 140.32 149.344 234.656 0 11.776 9.568 21.344 21.344 21.344 17.536 0 41.76 14.496 42.656 21.376v85.28c0 21.344 0 21.344-21.344 21.344-11.776 0-21.344 9.568-21.344 21.344v170.656c0 11.776 9.568 21.344 21.344 21.344 11.744 0 21.344-9.568 21.344-21.344v-151.2c42.656-8.32 42.656-42.592 42.656-62.112v-85.344c0-31.104-33.568-53.76-64.384-61.344-5.664-131.424-71.264-258.656-191.584-258.656zM512.48 723.552c-1.504 0-2.944 0.16-4.448 0.48l-389.344 81.76c-9.856 2.080-16.928 10.848-16.896 20.96s7.2 18.816 17.056 20.832l389.344 78.24c2.72 0.608 5.6 0.544 8.288 0.032l401.792-78.24c9.984-1.952 17.184-10.72 17.248-20.864s-7.136-18.944-17.056-20.992l-401.792-81.76c-1.376-0.288-2.784-0.416-4.192-0.416zM229.088 826.144l283.424-59.552 292.448 59.552-292.448 56.96-283.424-56.96zM512.48 604.416c-72.576 0-143.136 10.4-198.816 29.344-11.136 3.84-17.152 15.968-13.344 27.104 3.84 11.136 15.904 16.896 27.104 13.344 102.656-34.912 267.488-34.912 370.176 0 11.136 3.616 23.264-2.208 27.040-13.344 3.808-11.168-2.176-23.296-13.312-27.104-55.68-18.944-126.24-29.344-198.816-29.344zM917.792 417.792h-85.76c-6.496 0-12.64 2.944-16.672 8.032s-5.6 11.648-4.192 18.080l42.592 189.6v168.288c0 11.776 9.568 21.344 21.344 21.344 11.744 0 21.344-9.568 21.344-21.344v-168.32l42.144-189.6c1.376-6.304-0.16-12.96-4.224-18.016-3.968-5.152-10.112-8.064-16.544-8.064zM858.656 460.448h32.512l-16.16 72.8-16.352-72.8z" />
<glyph unicode="&#xe90b;" glyph-name="Globe" d="M959.104 427.552h-896c-11.744 0-21.344 9.6-21.344 21.344s9.6 21.344 21.344 21.344h896c11.744 0 21.344-9.6 21.344-21.344s-9.6-21.344-21.344-21.344zM873.76 726.24h-725.344c-11.744 0-21.344 9.6-21.344 21.344s9.6 21.344 21.344 21.344h725.344c11.744 0 21.344-9.6 21.344-21.344s-9.6-21.344-21.344-21.344zM873.76 128.896h-725.344c-11.744 0-21.344 9.6-21.344 21.344s9.6 21.344 21.344 21.344h725.344c11.744 0 21.344-9.6 21.344-21.344s-9.6-21.344-21.344-21.344zM512-22.24c-6.272 0-12.448 2.72-16.736 8.032-7.328 9.248-5.856 22.624 3.328 29.984 146.144 116.896 228.768 292.864 221.088 470.688-7.008 161.248-87.040 304.48-219.552 392.736-9.824 6.528-12.448 19.744-5.92 29.536 6.432 9.76 19.712 12.512 29.536 5.984 144-95.968 230.912-251.488 238.592-426.4 8.224-191.264-80.352-380.448-237.088-505.856-3.84-3.168-8.608-4.704-13.216-4.704zM511.968-22.24c-4.64 0-9.44 1.536-13.344 4.64-156.704 125.344-245.344 314.496-237.024 505.76 7.584 175.072 94.56 330.464 238.496 426.4 9.76 6.432 23.040 3.936 29.568-5.984 6.496-9.76 3.872-23.072-5.984-29.536-132.448-88.288-212.48-231.456-219.488-392.736-7.712-177.824 74.912-353.792 221.056-470.624 9.184-7.456 10.656-20.832 3.328-29.984-4.192-5.248-10.368-7.968-16.64-7.968zM512-42.656c-270.56 0-490.656 220.16-490.656 490.656 0 270.592 220.128 490.656 490.656 490.656 270.496 0 490.656-220.064 490.656-490.656 0-270.496-220.16-490.656-490.656-490.656zM512 896c-247.040 0-448-200.928-448-448 0-247.008 200.96-448 448-448 247.008 0 448 200.992 448 448 0 247.072-200.992 448-448 448z" />
<glyph unicode="&#xe90c;" glyph-name="Yes" d="M512 917.344c258.72 0 469.344-210.56 469.344-469.344 0-258.72-210.592-469.344-469.344-469.344-258.784 0-469.344 210.592-469.344 469.344 0 258.784 210.56 469.344 469.344 469.344zM512 960c-282.752 0-512-229.248-512-512s229.248-512 512-512 512 229.248 512 512-229.248 512-512 512v0zM470.24 254.208c-5.632 0-11.040 2.208-15.104 6.24l-172.512 172.448c-8.32 8.32-8.32 21.856 0 30.176s21.856 8.32 30.176 0l154.080-153.984 241.568 364.032c6.496 9.824 19.744 12.544 29.568 5.984 9.824-6.496 12.512-19.744 6.016-29.568l-256-385.792c-3.552-5.344-9.248-8.832-15.648-9.472-0.672 0-1.408-0.032-2.144-0.032z" />
<glyph unicode="&#xe90d;" glyph-name="Professor" d="M1002.656 149.344h-490.656v42.656h469.344v640h-725.344v-170.656h-42.656v192c0 11.776 9.568 21.344 21.344 21.344h768c11.744 0 21.344-9.568 21.344-21.344v-682.656c0-11.776-9.6-21.344-21.344-21.344zM277.344 320c-105.856 0-192 86.176-192 192s86.144 192 192 192 192-86.176 192-192-86.144-192-192-192zM277.344 661.344c-82.336 0-149.344-66.976-149.344-149.344s66.976-149.344 149.344-149.344 149.344 66.976 149.344 149.344-66.976 149.344-149.344 149.344zM533.344 21.344h-512c-11.776 0-21.344 9.568-21.344 21.344v78.24c0 117.28 75.136 222.688 187.008 262.24 9.376 3.296 19.808-0.384 25.088-8.672l65.28-102.752 66.016 103.296c5.28 8.224 15.52 11.808 24.832 8.704 111.52-37.728 186.496-140.448 186.496-255.712v-85.344c-0.032-11.808-9.632-21.376-21.376-21.376zM42.656 64h469.344v64c0 91.52-56.416 173.728-141.984 209.44l-74.72-116.96c-3.936-6.144-10.72-9.76-17.952-9.76v0c-7.296 0-14.080 3.744-17.952 9.76l-73.824 116.224c-86.112-37.408-142.848-122.080-142.848-215.84l-0.032-56.864zM810.656 704h-256c-11.744 0-21.344 9.568-21.344 21.344s9.6 21.344 21.344 21.344h256c11.744 0 21.344-9.568 21.344-21.344s-9.6-21.344-21.344-21.344zM896 576h-341.344c-11.744 0-21.344 9.568-21.344 21.344s9.6 21.344 21.344 21.344h341.344c11.744 0 21.344-9.568 21.344-21.344s-9.6-21.344-21.344-21.344zM896 448h-341.344c-11.744 0-21.344 9.568-21.344 21.344s9.6 21.344 21.344 21.344h341.344c11.744 0 21.344-9.568 21.344-21.344s-9.6-21.344-21.344-21.344zM494.336 259.68c-5.472 0-10.912 2.080-15.104 6.24-8.32 8.224-8.32 21.856 0 30.176l120.704 120.672c8.288 8.224 21.856 8.224 30.176 0 8.288-8.32 8.288-21.92 0-30.176l-120.704-120.672c-4.128-4.128-9.6-6.24-15.072-6.24z" />
<glyph unicode="&#xe90e;" glyph-name="arrow-more" horiz-adv-x="655" d="M17.36 869.537l474.224-421.537c0 0-474.224-421.537-474.224-421.537-21.355-18.998-23.269-51.73-4.308-73.085 18.998-21.355 51.767-23.306 73.122-4.308l517.744 460.233c11.046 9.831 17.378 23.895 17.378 38.696s-6.333 28.866-17.378 38.696l-517.744 460.233c-21.355 18.998-54.123 17.047-73.122-4.308-18.962-21.355-17.047-54.087 4.308-73.085z" />
<glyph unicode="&#xe90f;" glyph-name="Book" d="M874.656-64h-618.656c-70.56 0-128 57.44-128 128v768c0 72.064 80.256 128 149.344 128h576c11.744 0 21.344-9.568 21.344-21.344s-9.6-21.344-21.344-21.344h-576c-48 0-106.656-39.392-106.656-85.344v-42.656c0-45.952 58.656-85.344 106.656-85.344h597.344c11.744 0 21.344-9.568 21.344-21.344v-725.344c0-11.744-9.6-21.344-21.344-21.344zM170.656 703.456v-639.456c0-47.104 38.272-85.344 85.344-85.344h597.344v682.656h-576c-37.024 0-77.312 16.096-106.656 42.112zM810.656 789.344h-554.656c-11.776 0-21.344 9.568-21.344 21.344s9.568 21.344 21.344 21.344h554.656c11.744 0 21.344-9.568 21.344-21.344s-9.6-21.344-21.344-21.344z" />
<glyph unicode="&#xe910;" glyph-name="Arrow-Left2" d="M554.656-42.656c-7.552 0-14.88 4-18.688 11.136l-256 469.344c-3.488 6.304-3.488 14.080 0 20.448l256 469.344c5.664 10.336 18.656 14.176 28.928 8.544 10.368-5.664 14.176-18.592 8.544-28.928l-250.496-459.168 250.464-459.136c5.632-10.368 1.824-23.296-8.544-28.96-3.2-1.696-6.688-2.56-10.208-2.56zM725.344-42.656c-7.552 0-14.88 4-18.688 11.136l-256 469.344c-3.488 6.304-3.488 14.080 0 20.448l256 469.344c5.632 10.336 18.656 14.176 28.928 8.544 10.368-5.664 14.176-18.592 8.544-28.928l-250.496-459.168 250.464-459.136c5.632-10.368 1.824-23.296-8.544-28.96-3.2-1.696-6.688-2.56-10.208-2.56z" />
<glyph unicode="&#xe911;" glyph-name="Handshake" d="M505.472 150.912c-24.192 0-47.232 9.248-60.768 18.176-23.008 15.104-190.336 155.008-209.376 170.912l-58.016 48.864c-8.992 7.584-10.112 21.088-2.528 30.080 7.52 8.96 20.992 10.144 30.080 2.592l57.888-48.768c91.36-76.448 191.232-158.688 205.408-168.032 10.24-6.752 28.448-12.576 42.88-10.912 12.256 1.504 16 7.648 17.888 12.832 2.432 6.656 8.032 11.68 15.008 13.344 7.008 1.76 14.176-0.16 19.488-4.96 12.576-11.52 32.256-12.544 45.28-7.456 6.496 2.56 14.56 7.712 15.392 17.664 0.8 8.096 6.112 15.104 13.664 18.016s16.16 1.184 22.176-4.384c6.112-5.6 20.512-5.408 32.288 0.416 6.528 3.232 17.28 10.752 15.904 23.968-0.896 8.288 3.104 16.352 10.272 20.608 7.072 4.256 16.096 3.936 23.008-0.8 6.272-4.384 14.336-0.928 19.232 3.296 7.968 6.784 13.6 19.84 5.76 36.256-24.288 50.528-153.952 173.568-233.76 229.376l-0.672-0.224c-22.656-8.224-25.12-8.96-41.952-10.624-21.152-30.72-63.264-83.2-126.176-62.432-19.936 6.56-33.536 21.536-38.368 42.24-10.784 46.336 23.808 110.688 52.992 139.36 48 47.072 135.968 87.776 225.888 47.456 83.232-37.248 135.072-52.608 135.584-52.768 11.36-3.328 17.824-15.136 14.496-26.464s-15.104-17.824-26.464-14.464c-2.208 0.64-54.816 16.224-141.056 54.784-70.368 31.456-140.192-1.312-178.656-39.008-23.552-23.168-47.264-73.504-41.248-99.168 1.44-6.272 4.32-9.504 10.144-11.424 31.872-10.528 55.424 12.896 83.040 54.112 3.552 5.28 9.248 8.704 15.584 9.344l7.84 0.768c14.208 1.376 14.208 1.376 33.696 8.448l11.008 4c6.304 2.272 13.472 1.408 19.104-2.336 77.184-51.456 226.272-187.808 257.28-252.448 15.104-31.456 8.672-65.664-16.48-87.136-12.416-10.624-27.104-16.096-41.76-15.488-6.016-15.488-18.304-28.832-35.328-37.344-17.664-8.736-37.152-11.008-54.144-7.072-7.424-11.552-18.784-20.736-33.184-26.336-22.24-8.576-47.488-7.424-68.512 2.176-9.76-10.208-23.2-16.64-39.328-18.528-3.488-0.384-7.040-0.544-10.592-0.544zM436.832 656.16c-0.768 0-1.536 0.032-2.336 0.128-43.744 4.736-148.128 7.84-181.632 6.816-9.952-0.736-21.6 8.928-21.92 20.704-0.384 11.776 8.928 21.6 20.64 21.984 35.296 1.024 141.344-2.080 187.52-7.136 11.68-1.248 20.192-11.776 18.912-23.456-1.12-10.976-10.4-19.040-21.152-19.040zM791.52 319.232c-6.432 0-12.832 2.912-16.992 8.416-7.136 9.376-5.344 22.752 4.096 29.92l41.76 31.648c9.376 7.072 22.784 5.344 29.856-4.096s5.344-22.816-4.096-29.92l-41.76-31.712c-3.84-2.816-8.416-4.256-12.896-4.256zM729.248 244.352c-4.608 0-9.248 1.504-13.216 4.576-22.368 17.664-139.52 127.104-144.48 131.744-8.608 8.032-9.056 21.504-0.992 30.176s21.6 8.992 30.176 0.992c33.504-31.328 124.32-115.712 141.728-129.44 9.248-7.296 10.848-20.704 3.552-29.984-4.192-5.28-10.496-8.032-16.768-8.032zM645.344 202.016c-4.64 0-9.376 1.536-13.344 4.608-28.928 23.168-110.368 96.512-122.656 109.824-7.968 8.672-7.392 22.176 1.28 30.080 8.704 8.032 22.176 7.52 30.176-1.184 9.888-10.752 89.632-82.688 117.888-105.376 9.216-7.328 10.72-20.736 3.36-29.984-4.192-5.216-10.464-7.936-16.672-7.936zM548.896 178.016c-4.832 0-9.728 1.664-13.728 5.088-27.776 23.424-66.016 61.568-91.552 88.928-8.032 8.576-7.552 22.144 1.056 30.176s22.144 7.52 30.176-1.024c24.672-26.464 61.344-63.104 87.84-85.472 8.992-7.584 10.112-21.024 2.56-30.080-4.224-4.992-10.24-7.584-16.352-7.584zM76.64 314.912c-26.624 0-46.176 1.664-59.776 4.896-9.696 2.336-16.416 11.008-16.352 20.896 1.44 155.040 41.6 377.504 43.296 386.848 2.048 11.392 12.704 18.976 24.224 17.28 5.536-0.896 137.056-21.376 191.2-40.288 9.216-3.232 15.136-12.256 14.24-21.984-9.696-110.976-85.504-339.2-88.736-348.832-2.688-8.032-9.824-13.664-18.208-14.432-1.952-0.224-47.104-4.448-89.888-4.448zM43.552 358.912c23.136-2.080 79.904-0.096 105.088 1.76 15.52 48 67.712 213.344 80.48 308.704-42.528 11.936-112.352 24.224-146.912 30.048-9.568-56.544-35.2-217.728-38.656-340.48zM933.248 326.176c-45.92 0-76.576 3.488-93.824 10.592-6.112 2.528-10.656 7.68-12.416 14.080-16.352 59.136-76.576 228.512-102.56 270.336-3.232 5.216-4.128 11.552-2.304 17.504 1.824 5.888 6.112 10.72 11.648 13.184 3.072 1.408 75.936 33.696 153.984 33.696 16.512 0 32.288-1.536 46.88-4.384 5.344-1.024 10.016-4.096 13.216-8.48 51.488-71.84 73.184-295.68 75.488-320.896 0.544-5.664-1.28-11.424-4.96-15.744-3.744-4.448-9.088-7.072-14.816-7.52-0.032-0.032-33.376-2.336-70.368-2.336zM864.864 373.6c10.656-2.304 30.944-4.768 68.448-4.768 16.992 0 33.152 0.544 45.408 1.024-8.064 73.888-29.184 216.704-60.928 270.944-9.44 1.376-19.424 2.080-29.856 2.080-45.344 0-89.76-12.832-115.072-21.728 29.984-62.048 74.848-190.048 92.032-247.552z" />
<glyph unicode="&#xe912;" glyph-name="shop-jobs" d="M86.266 626.54c-5.803-0.165-10.296 1.37-13.572 4.621-3.276 3.234-4.867 7.426-4.867 12.542 0 3.928 1.123 7.343 3.463 10.231 2.34 2.904 5.709 4.522 10.108 4.868l7.394 0.512c13.665 0.858 20.498 8.020 20.498 21.502v110.333c0 6.485 1.685 11.485 5.148 14.984 3.369 3.498 8.237 5.248 14.601 5.248 13.291 0 19.936-6.749 19.936-20.232v-109.822c0-33.961-17.877-52.048-53.725-54.275l-8.985-0.512zM268.874 625.781c-17.783 0-33.32 3.878-46.705 11.651-13.478 7.756-23.867 18.598-31.261 32.509s-11.138 30.248-11.138 49.028c0 18.763 3.744 35.117 11.138 49.011 7.394 13.911 17.783 24.704 31.074 32.394 13.291 7.673 28.921 11.518 46.892 11.518 17.877 0 33.601-3.845 46.986-11.518 13.384-7.69 23.774-18.482 31.168-32.394 7.488-13.895 11.138-30.166 11.138-48.764 0-18.763-3.65-35.15-11.138-49.143-7.394-13.994-17.783-24.885-31.168-32.641-13.384-7.773-29.109-11.651-46.986-11.651zM268.874 659.577c14.976 0 26.769 5.248 35.192 15.743s12.636 25.034 12.636 43.648c0 18.763-4.118 33.318-12.542 43.648-8.33 10.314-20.123 15.479-35.286 15.479-14.882 0-26.488-5.165-35.005-15.479-8.424-10.33-12.636-24.885-12.636-43.648 0-18.614 4.212-33.153 12.636-43.648 8.517-10.495 20.123-15.743 35.005-15.743zM409.737 628.603c-13.852 0-20.779 6.898-20.779 20.727v139.014c0 13.812 6.926 20.727 20.779 20.727h61.961c19.281 0 34.163-4.175 44.646-12.542s15.724-19.803 15.724-34.308c0-9.555-2.434-17.789-7.207-24.704-4.773-6.898-11.419-12.063-19.936-15.479 10.296-2.904 18.158-8.020 23.68-15.363s8.33-16.387 8.33-27.129c0-16.057-5.616-28.549-16.754-37.509-11.232-8.961-26.394-13.433-45.675-13.433h-64.769zM426.865 734.827h37.907c19.375 0 29.202 7.525 29.202 22.542 0 14.835-9.828 22.261-29.202 22.261h-37.907v-44.803zM426.865 658.043h42.212c10.296 0 17.783 1.947 22.557 5.875s7.113 9.901 7.113 17.921c0 7.855-2.34 13.746-7.113 17.674s-12.261 5.875-22.557 5.875h-42.212v-47.345zM631.468 625.781c-10.951 0-21.902 1.188-32.759 3.581-10.951 2.393-20.404 5.891-28.453 10.495-4.773 2.558-7.769 6.023-8.985 10.363-1.123 4.357-0.936 8.581 0.842 12.674 1.685 4.109 4.399 6.997 8.143 8.713 3.744 1.7 8.33 1.271 13.572-1.287 6.833-3.928 14.414-6.832 22.838-8.697 8.33-1.881 16.567-2.822 24.803-2.822 12.261 0 21.059 1.914 26.488 5.759 5.335 3.845 8.049 8.664 8.049 14.472 0 4.951-1.872 8.862-5.616 11.766s-10.296 5.38-19.749 7.426l-28.921 6.139c-32.197 6.832-48.39 23.565-48.39 50.183 0 11.436 3.089 21.469 9.266 30.083 6.084 8.614 14.695 15.314 25.739 20.1 10.951 4.769 23.68 7.162 38.281 7.162 9.547 0 18.907-1.155 28.079-3.449 9.266-2.31 17.315-5.677 24.335-10.116 4.305-2.558 6.926-5.891 7.956-9.984s0.749-8.020-0.936-11.783c-1.591-3.746-4.305-6.403-8.143-7.938s-8.611-0.941-14.227 1.799c-5.616 2.904-11.606 5.033-17.877 6.403-6.365 1.353-12.823 2.046-19.468 2.046-10.764 0-19.094-2.096-24.99-6.271-5.897-4.192-8.798-9.604-8.798-16.255 0-4.951 1.778-8.961 5.335-12.047 3.65-3.069 9.828-5.545 18.719-7.409l28.921-6.155c33.133-7.162 49.606-23.384 49.606-48.632 0-11.271-2.995-21.123-9.079-29.572-5.99-8.449-14.508-15.017-25.552-19.72-11.044-4.687-24.054-7.030-39.030-7.030zM870.228-34.744c34.351 0 63.716 12.151 87.955 36.454 24.378 24.303 36.567 53.63 36.567 87.983v664.040c0 22.688-8.172 42.133-24.378 58.335s-35.598 24.303-58.314 24.303h-145.854c-5.125 0-9.834-1.935-13.99-5.832-4.294-3.883-6.372-8.741-6.372-14.573v-726.272c0-34.352 12.189-63.68 36.429-87.983 24.378-24.303 53.604-36.454 87.955-36.454zM912.059 795.545c11.081 0 20.638-4.050 28.672-12.151 8.172-8.101 12.189-17.997 12.189-29.662v-664.040c0-22.674-8.172-42.119-24.378-58.321-16.206-16.216-35.598-24.317-58.314-24.317s-42.108 8.101-58.314 24.317c-16.206 16.202-24.24 35.647-24.24 58.321v705.853h124.384zM455.106 504.844h208.046c5.263 0 9.973 1.949 14.128 5.832s6.372 8.755 6.372 14.587c0 5.832-2.216 10.857-6.372 15.060-4.155 4.217-8.865 6.319-14.128 6.319h-208.046c-5.125 0-9.834-2.102-14.128-6.319-4.155-4.204-6.233-9.228-6.233-15.060s2.078-10.704 6.233-14.587c4.294-3.883 9.003-5.832 14.128-5.832zM455.106 380.393h208.046c5.263 0 9.973 1.949 14.128 5.832 4.155 3.897 6.372 8.755 6.372 14.587s-2.216 10.857-6.372 15.074c-4.155 4.204-8.865 6.319-14.128 6.319h-208.046c-5.125 0-9.834-2.116-14.128-6.319-4.155-4.217-6.233-9.242-6.233-15.074s2.078-10.69 6.233-14.587c4.294-3.883 9.003-5.832 14.128-5.832zM103.146 255.748h248.907c5.263 0 9.834 1.949 14.128 5.832 4.155 3.883 6.233 8.755 6.233 14.587v248.888c0 5.832-2.078 10.857-6.233 15.074-4.294 4.204-8.865 6.319-14.128 6.319h-248.907c-5.818 0-10.804-2.116-15.098-6.319-4.155-4.217-6.233-9.242-6.233-15.074v-248.888c0-5.832 2.078-10.704 6.233-14.587 4.294-3.883 9.28-5.832 15.098-5.832zM330.722 297.547h-207.076v207.089h207.076v-207.089zM455.106 255.956h208.046c5.263 0 9.973 1.935 14.128 5.832 4.155 3.883 6.372 8.741 6.372 14.573 0 5.846-2.216 10.857-6.372 15.074s-8.865 6.319-14.128 6.319h-208.046c-5.125 0-9.834-2.102-14.128-6.319-4.155-4.217-6.233-9.228-6.233-15.074 0-5.832 2.078-10.69 6.233-14.573 4.294-3.897 9.003-5.832 14.128-5.832zM455.106 131.506h208.046c5.263 0 9.973 1.949 14.128 5.832s6.372 8.755 6.372 14.587c0 5.832-2.216 10.857-6.372 15.060-4.155 4.217-8.865 6.319-14.128 6.319h-208.046c-5.125 0-9.834-2.102-14.128-6.319-4.155-4.204-6.233-9.228-6.233-15.060s2.078-10.704 6.233-14.587c4.294-3.883 9.003-5.832 14.128-5.832zM123.646 131.506h207.076c5.818 0 10.804 1.949 14.959 5.832 4.294 3.883 6.372 8.755 6.372 14.587s-2.078 10.857-6.372 15.060c-4.155 4.217-9.142 6.319-14.959 6.319h-207.076c-5.818 0-10.804-2.102-14.682-6.319-3.878-4.204-5.818-9.228-5.818-15.060s1.939-10.704 5.818-14.587c3.878-3.883 8.865-5.832 14.682-5.832zM81.815-34.744h788.413c5.818 0 10.665 2.102 14.682 6.319 3.878 4.204 5.818 9.228 5.818 15.060 0 5.192-1.939 9.896-5.818 14.1-4.017 4.217-8.865 6.319-14.682 6.319h-788.413c-11.081 0-20.638 4.050-28.672 12.151-8.172 8.101-12.189 17.997-12.189 29.662v829.315c0 11.664 4.017 21.547 12.189 29.648 8.034 8.101 17.591 12.151 28.672 12.151h622.198c11.635 0 21.608-4.050 29.642-12.151 8.172-8.101 12.189-17.984 12.189-29.648v-788.49c0-5.832 2.078-10.69 6.372-14.573 4.155-3.897 8.865-5.832 13.99-5.832 5.818 0 10.942 1.935 15.098 5.832 4.155 3.883 6.372 8.741 6.372 14.573v788.49c0 22.688-8.172 42.133-24.378 58.335s-35.875 24.303-59.283 24.303h-622.198c-22.716 0-42.108-8.101-58.314-24.303s-24.378-35.647-24.378-58.335v-829.315c0-23.342 8.172-43.108 24.378-59.309s35.598-24.303 58.314-24.303z" />
<glyph unicode="&#xe913;" glyph-name="shop-cart" horiz-adv-x="1062" d="M11.632 905.256l83.778-51.996c0 0 141.653-550.153 141.653-550.153 2.996-11.681 14.033-19.494 26.017-18.432l652.629 57.23c9.937 0.872 18.394 7.661 21.352 17.18l99.404 317.326c2.276 7.206 1.1 15.057-3.186 21.276-4.286 6.258-11.188 10.164-18.735 10.657l-780.857 51.124c-13.577 0.872-25.335-9.444-26.207-23.021-0.91-13.577 9.406-25.297 22.983-26.207l749.568-49.038c0 0-85.068-271.625-85.068-271.625s-615.348-53.969-615.348-53.969c0 0-138.923 539.534-138.923 539.534-1.593 6.144-5.499 11.454-10.885 14.791l-92.16 57.23c-11.567 7.168-26.776 3.603-33.944-7.964s-3.603-26.776 7.927-33.944zM256.327 229.732l21.364-80.985c2.88-10.799 12.616-18.345 23.808-18.355l561.965-0.974c13.606-0.026 24.664 10.994 24.698 24.606s-10.986 24.677-24.592 24.703l-543.045 0.925c0 0-16.526 62.666-16.526 62.666-3.477 13.141-16.981 21.010-30.124 17.542s-20.997-16.968-17.549-30.127zM360.648 100.603c-41.614 0-75.374-33.76-75.374-75.374 0-41.57 33.76-75.374 75.374-75.374 41.57 0 75.374 33.803 75.374 75.374 0 41.614-33.803 75.374-75.374 75.374zM360.648 51.309c14.363 0 26.036-11.673 26.036-26.079 0-14.363-11.673-26.036-26.036-26.036-14.406 0-26.079 11.673-26.079 26.036 0 14.406 11.673 26.079 26.079 26.079zM819.131 101.273c-41.614 0-75.374-33.76-75.374-75.374 0-41.57 33.76-75.374 75.374-75.374 41.57 0 75.374 33.803 75.374 75.374 0 41.614-33.803 75.374-75.374 75.374zM819.131 51.979c14.363 0 26.036-11.673 26.036-26.079 0-14.363-11.673-26.036-26.036-26.036-14.406 0-26.079 11.673-26.079 26.036 0 14.406 11.673 26.079 26.079 26.079z" />
<glyph unicode="&#xf00c;" glyph-name="check" d="M954.857 627.428c0-14.286-5.714-28.571-16-38.857l-491.429-491.429c-10.286-10.286-24.571-16-38.857-16s-28.571 5.714-38.857 16l-284.571 284.571c-10.286 10.286-16 24.571-16 38.857s5.714 28.571 16 38.857l77.714 77.714c10.286 10.286 24.571 16 38.857 16s28.571-5.714 38.857-16l168-168.571 374.857 375.429c10.286 10.286 24.571 16 38.857 16s28.571-5.714 38.857-16l77.714-77.714c10.286-10.286 16-24.571 16-38.857z" />
<glyph unicode="&#xf014;" glyph-name="trash-o" horiz-adv-x="805" d="M292.571 530.286v-329.143c0-10.286-8-18.286-18.286-18.286h-36.571c-10.286 0-18.286 8-18.286 18.286v329.143c0 10.286 8 18.286 18.286 18.286h36.571c10.286 0 18.286-8 18.286-18.286zM438.857 530.286v-329.143c0-10.286-8-18.286-18.286-18.286h-36.571c-10.286 0-18.286 8-18.286 18.286v329.143c0 10.286 8 18.286 18.286 18.286h36.571c10.286 0 18.286-8 18.286-18.286zM585.143 530.286v-329.143c0-10.286-8-18.286-18.286-18.286h-36.571c-10.286 0-18.286 8-18.286 18.286v329.143c0 10.286 8 18.286 18.286 18.286h36.571c10.286 0 18.286-8 18.286-18.286zM658.286 116.571v541.714h-512v-541.714c0-27.429 15.429-43.429 18.286-43.429h475.429c2.857 0 18.286 16 18.286 43.429zM274.286 731.428h256l-27.429 66.857c-1.714 2.286-6.857 5.714-9.714 6.286h-181.143c-3.429-0.571-8-4-9.714-6.286zM804.571 713.143v-36.571c0-10.286-8-18.286-18.286-18.286h-54.857v-541.714c0-62.857-41.143-116.571-91.429-116.571h-475.429c-50.286 0-91.429 51.429-91.429 114.286v544h-54.857c-10.286 0-18.286 8-18.286 18.286v36.571c0 10.286 8 18.286 18.286 18.286h176.571l40 95.429c11.429 28 45.714 50.857 76 50.857h182.857c30.286 0 64.571-22.857 76-50.857l40-95.429h176.571c10.286 0 18.286-8 18.286-18.286z" />
<glyph unicode="&#xf040;" glyph-name="pencil" horiz-adv-x="866" d="M207.429 73.143l52 52-134.286 134.286-52-52v-61.143h73.143v-73.143h61.143zM506.286 603.428c0 7.429-5.143 12.571-12.571 12.571-3.429 0-6.857-1.143-9.714-4l-309.714-309.714c-2.857-2.857-4-6.286-4-9.714 0-7.429 5.143-12.571 12.571-12.571 3.429 0 6.857 1.143 9.714 4l309.714 309.714c2.857 2.857 4 6.286 4 9.714zM475.429 713.143l237.714-237.714-475.429-475.429h-237.714v237.714zM865.714 658.286c0-19.429-8-38.286-21.143-51.429l-94.857-94.857-237.714 237.714 94.857 94.286c13.143 13.714 32 21.714 51.429 21.714s38.286-8 52-21.714l134.286-133.714c13.143-13.714 21.143-32.571 21.143-52z" />
<glyph unicode="&#xf067;" glyph-name="plus" horiz-adv-x="805" d="M804.571 530.286v-109.714c0-30.286-24.571-54.857-54.857-54.857h-237.714v-237.714c0-30.286-24.571-54.857-54.857-54.857h-109.714c-30.286 0-54.857 24.571-54.857 54.857v237.714h-237.714c-30.286 0-54.857 24.571-54.857 54.857v109.714c0 30.286 24.571 54.857 54.857 54.857h237.714v237.714c0 30.286 24.571 54.857 54.857 54.857h109.714c30.286 0 54.857-24.571 54.857-54.857v-237.714h237.714c30.286 0 54.857-24.571 54.857-54.857z" />
<glyph unicode="&#xf08b;" glyph-name="sign-out" horiz-adv-x="896" d="M365.714 128c0-16 7.429-54.857-18.286-54.857h-182.857c-90.857 0-164.571 73.714-164.571 164.571v402.286c0 90.857 73.714 164.571 164.571 164.571h182.857c9.714 0 18.286-8.571 18.286-18.286 0-16 7.429-54.857-18.286-54.857h-182.857c-50.286 0-91.429-41.143-91.429-91.429v-402.286c0-50.286 41.143-91.429 91.429-91.429h164.571c14.286 0 36.571 2.857 36.571-18.286zM896 438.857c0-9.714-4-18.857-10.857-25.714l-310.857-310.857c-6.857-6.857-16-10.857-25.714-10.857-20 0-36.571 16.571-36.571 36.571v164.571h-256c-20 0-36.571 16.571-36.571 36.571v219.429c0 20 16.571 36.571 36.571 36.571h256v164.571c0 20 16.571 36.571 36.571 36.571 9.714 0 18.857-4 25.714-10.857l310.857-310.857c6.857-6.857 10.857-16 10.857-25.714z" />
<glyph unicode="&#xf0d7;" glyph-name="caret-down" horiz-adv-x="585" d="M585.143 548.571c0-9.714-4-18.857-10.857-25.714l-256-256c-6.857-6.857-16-10.857-25.714-10.857s-18.857 4-25.714 10.857l-256 256c-6.857 6.857-10.857 16-10.857 25.714 0 20 16.571 36.571 36.571 36.571h512c20 0 36.571-16.571 36.571-36.571z" />
<glyph unicode="&#xf0da;" glyph-name="caret-right" horiz-adv-x="329" d="M329.143 438.857c0-9.714-4-18.857-10.857-25.714l-256-256c-6.857-6.857-16-10.857-25.714-10.857-20 0-36.571 16.571-36.571 36.571v512c0 20 16.571 36.571 36.571 36.571 9.714 0 18.857-4 25.714-10.857l256-256c6.857-6.857 10.857-16 10.857-25.714z" />
<glyph unicode="&#xf102;" glyph-name="angle-double-up" horiz-adv-x="658" d="M614.286 201.143c0-4.571-2.286-9.714-5.714-13.143l-28.571-28.571c-3.429-3.429-8-5.714-13.143-5.714-4.571 0-9.714 2.286-13.143 5.714l-224.571 224.571-224.571-224.571c-3.429-3.429-8.571-5.714-13.143-5.714s-9.714 2.286-13.143 5.714l-28.571 28.571c-3.429 3.429-5.714 8.571-5.714 13.143s2.286 9.714 5.714 13.143l266.286 266.286c3.429 3.429 8.571 5.714 13.143 5.714s9.714-2.286 13.143-5.714l266.286-266.286c3.429-3.429 5.714-8.571 5.714-13.143zM614.286 420.571c0-4.571-2.286-9.714-5.714-13.143l-28.571-28.571c-3.429-3.429-8-5.714-13.143-5.714-4.571 0-9.714 2.286-13.143 5.714l-224.571 224.571-224.571-224.571c-3.429-3.429-8.571-5.714-13.143-5.714s-9.714 2.286-13.143 5.714l-28.571 28.571c-3.429 3.429-5.714 8.571-5.714 13.143s2.286 9.714 5.714 13.143l266.286 266.286c3.429 3.429 8.571 5.714 13.143 5.714s9.714-2.286 13.143-5.714l266.286-266.286c3.429-3.429 5.714-8.571 5.714-13.143z" />
<glyph unicode="&#xf103;" glyph-name="angle-double-down" horiz-adv-x="658" d="M614.286 457.143c0-4.571-2.286-9.714-5.714-13.143l-266.286-266.286c-3.429-3.429-8.571-5.714-13.143-5.714s-9.714 2.286-13.143 5.714l-266.286 266.286c-3.429 3.429-5.714 8.571-5.714 13.143s2.286 9.714 5.714 13.143l28.571 28.571c3.429 3.429 8 5.714 13.143 5.714 4.571 0 9.714-2.286 13.143-5.714l224.571-224.571 224.571 224.571c3.429 3.429 8.571 5.714 13.143 5.714s9.714-2.286 13.143-5.714l28.571-28.571c3.429-3.429 5.714-8.571 5.714-13.143zM614.286 676.571c0-4.571-2.286-9.714-5.714-13.143l-266.286-266.286c-3.429-3.429-8.571-5.714-13.143-5.714s-9.714 2.286-13.143 5.714l-266.286 266.286c-3.429 3.429-5.714 8.571-5.714 13.143s2.286 9.714 5.714 13.143l28.571 28.571c3.429 3.429 8 5.714 13.143 5.714 4.571 0 9.714-2.286 13.143-5.714l224.571-224.571 224.571 224.571c3.429 3.429 8.571 5.714 13.143 5.714s9.714-2.286 13.143-5.714l28.571-28.571c3.429-3.429 5.714-8.571 5.714-13.143z" />
</font>
</defs>
</svg>
